[Mushin] Nanatsu no Bitoku Special 01 (11) (BD 720p Hi10 AAC).mkv +1


Torrent info
Uploader: Mushin_zen
Language: English English
Category:
Anime - Sub
Labels: R
Group: Individual
Download: Torrent Magnet XDCC
Actions: Report
Scrape info
Date: 2018-07-12 23:38:22 UTC
File size: 77.5 MB
Seeders: 9
Leechers: 0
Completed: 294
Transferred: 22.3 GB
Info Hash: f3d86c505fac5a24574022770e7466f86214f8af
Torrent Info: [AniDex Torrent #164559] share anime sub

Description

Hi-Fan Anime
warning
This anime come to Special 1-2 form Bd unfortunately Don’t have real fan subbed.
I make Hobby Sub Eng to watch for myself and share Free soft subbed for someone want edit.
Of course I translation By tools all (Google ,Web dictionary,other) maybe wrong Grammar
I take some sentence form manga that mean same or nearby anime.
So please don’t expect quality " This is Hobby Sub" then enough watch Anime for Understand.
I translated by my understand. I guess some sentence.
" I hope real fan-sub to improve to best."
Sorry for any inaccuracies, English is not my first language.

I Hope Fan Anime this Enjoy&Fun

Who want download? go ahead.

[Mushin] Nanatsu no Bitoku Special 01 (11) (BD 720p Hi10 AAC).mkv

Video
ID : 1 Format : AVC
Format profile : High [email protected]
Format settings, RefFrames : 16 frames
Duration : 4 min 37 s
Bit rate : 2 081 kb/s
Width : 1 280 pixels
Height : 720 pixels
Display aspect ratio : 16:9
Frame rate : 23.976 (24000/1001) FPS
Bit depth : 10 bits
Stream size : 68.8 MiB (89%)

Format : AAC
Format profile : LC
Duration : 4 min 37 s
Bit rate : 255 kb/s
Channel(s) : 2 channels
Stream size : 8.44 MiB (11%)

Sub
Format : ASS
Title : Mushin
Language : English

Comments

[Mushin] Nanatsu no Bitoku Special 01 (11) (BD 720p Hi10 AAC).mkv (77.5 MB)
Tracker details
Tracker 1: http://anidex.moe:6969/announce
Tracker 2: http://nyaa.tracker.wf:7777/announce
Tracker 3: udp://tracker.tiny-vps.com:6969/announce
Tracker 4: udp://open.stealth.si:80/announce
Tracker 5: udp://tracker.opentrackr.org:1337/announce
Tracker 6: udp://tracker.coppersurfer.tk:6969/announce
Actions:

Page generated in 35 ms.